#TITLE:像最初一样;
#SUBTITLE:;
#ARTIST:高耀太;
#TITLETRANSLIT:;
#SUBTITLETRANSLIT:;
#ARTISTTRANSLIT:;
#CREDIT:;
#BANNER:d-LOGO.jpg;
#BACKGROUND:d.jpg;
#LYRICSPATH:;
#CDTITLE:Lan.png;
#MUSIC:d.mp3;
#OFFSET:-0.040;
#SAMPLESTART:100.000;
#SAMPLELENGTH:12.000;
#SELECTABLE:YES;
#BPMS:0.000=128.000,192.000=64.000,194.000=128.000;
#STOPS:;
#BGCHANGES:;
// cache tags:
#FIRSTBEAT:4.000;
#LASTBEAT:284.000;
#SONGFILENAME:Songs/SDO 2/d/d.sm;
#HASMUSIC:1;
#HASBANNER:1;
#MUSICLENGTH:135.488;
// end cache tags

//---------------dance-single - sky----------------
#NOTES:
     dance-single:
     sky:
     Hard:
     10:
     1.000,1.000,1.000,0.052,0.351,595.000,301.000,7.000,0.000,70.000:

0000
0000
0000
0000
,
1100
0001
0010
0100
0001
0010
0100
0000
1010
0000
0001
0010
1000
0100
0010
0001
,
1100
0001
0010
0100
0001
0010
0100
0000
1010
0000
0001
0010
1000
0100
0010
0001
,
1100
0001
0010
0100
0001
0010
0100
0000
1010
0000
0001
0010
1000
0100
0010
0001
,
1120
0000
0101
0000
1100
0000
0101
0030
,
0011
1000
0100
0010
1000
0100
0010
0000
0101
0000
1000
0100
0001
0010
0100
1000
,
0011
1000
0100
0010
1000
0100
0010
0000
0101
0000
1000
0100
0001
0010
0100
1000
,
0011
1000
0100
0010
1000
0100
0010
0000
0101
0000
1000
0100
0001
0010
0100
1000
,
1000
0100
0010
0001
1000
0100
0010
0001
1000
0100
0010
0001
1000
0100
0010
0001
,
1010
0001
0110
0001
1010
1001
0110
0001
,
1010
0001
0110
0001
1010
1001
0110
0001
,
0101
1000
0110
1000
0101
1001
0110
1000
,
0101
1000
0111
1000
0101
1000
0111
0000
,
1010
0001
0110
0001
1010
1001
0110
0001
,
1010
0001
0110
0001
1010
1001
0110
0001
,
0101
1000
0110
1000
0101
1001
0110
1000
,
0101
1000
0110
1000
0100
0011
0110
0000
,
1010
0001
0110
0001
1010
1001
0110
0001
,
1010
0001
0110
0001
1010
1001
0110
0001
,
0101
1000
0110
1000
0101
1001
0110
1000
,
0101
1000
0111
1000
0101
1000
0111
0000
,
1010
0001
0110
0001
1010
1001
0110
0001
,
1010
0001
0110
0001
1010
1001
0110
0001
,
0101
1000
0110
1000
0101
1001
0110
1000
,
0111
1000
0101
1000
0111
1000
0110
1001
,
0011
0000
0000
0000
1001
0100
0010
0000
1001
0100
0010
0000
1001
0100
0010
0000
,
1001
0100
0010
0000
1001
0100
0010
0000
1001
0100
0010
0000
1001
0100
0010
0000
,
1100
0000
0000
0000
1001
0010
0100
0000
1001
0010
0100
0000
1001
0010
0100
0000
,
1001
0010
0100
0000
1001
0010
0100
0000
1001
0010
0100
0000
1001
0010
0100
0000
,
1100
0000
0000
0000
1100
0010
0001
0000
1100
0010
0001
0000
1100
0010
0001
0000
,
1100
0010
0001
0000
1100
0010
0001
0000
1100
0010
0001
0000
1100
0010
0001
0000
,
0011
0100
1000
0000
0011
0100
1000
0000
0011
0100
1000
0000
0011
0100
1000
0000
,
0111
1110
0111
1110
,
0011
0000
0010
0000
1100
0000
0010
0000
0001
0010
0100
0000
1100
0000
0010
0000
,
1100
0000
0010
0000
0011
0000
0100
0000
1000
0100
0010
0000
0011
0000
0100
0000
,
1100
0000
0010
0000
0110
0000
0001
0000
0010
0100
1000
0000
0110
0000
0001
0000
,
0111
0000
1110
0000
0111
0010
1110
0010
,
0011
0000
0001
0000
0110
0000
1000
0000
0100
0010
0001
0000
0110
0000
1000
0000
,
1100
0000
0100
0000
0110
0000
0001
0000
0010
0100
1000
0000
1100
0000
0010
0000
,
0011
0000
0001
0000
0110
0000
0100
0000
1000
0100
0010
0000
0011
0000
0100
0000
,
0111
1110
0111
1110
,
1001
0100
0010
0000
0011
0000
0010
0000
1001
0100
0010
0000
0011
0000
0010
0000
,
1001
0010
0100
0000
1100
0000
0100
0000
1001
0010
0100
0000
1100
0000
0100
0000
,
1001
0100
0010
0000
0011
0000
0010
0000
1001
0100
0010
0000
0011
0000
0010
0000
,
1001
0100
0010
0000
0011
0000
0010
0000
1001
0100
0010
0000
0011
0000
0010
0000
,
1001
0100
0010
0000
0011
0000
0010
0000
1001
0100
0010
0000
0011
0000
0010
0000
,
1001
0010
0100
0000
1100
0000
0100
0000
1001
0010
0100
0000
1100
0000
0100
0000
,
1110
0111
1110
0111
,
0220
0000
0000
0000
1331
0010
0011
0100
,
0110
0010
1100
0100
0011
0010
0110
0100
,
1100
0100
0110
0010
0011
0010
0110
0010
,
1100
0100
0110
0010
1101
0010
1011
0100
,
1101
0010
1011
0000
0101
0110
1010
0110
,
0101
0011
1010
0110
0101
0011
1010
0110
,
0101
0110
1010
0110
0101
0011
1010
0110
,
0011
0100
0110
0010
1100
0100
0110
0010
,
0011
0101
1010
0000
0101
0110
1010
0110
,
0101
0011
1010
0110
0101
0011
1010
0110
,
0101
0011
1010
0110
0101
0011
1010
0110
,
1010
0110
0101
0011
1110
0000
0111
0000
,
1110
0000
0111
0000
1011
1101
1011
1101
,
1011
1101
1011
1101
1011
1101
1011
1101
,
1011
1101
1011
1101
0111
1101
1110
1011
,
1110
1101
0111
1011
1111
0100
1111
0010
,
1111
0000
1111
1111
0011
1100
0011
1100
,
0011
1100
0011
1100
0111
1100
1110
0011
,
0111
0000
1100
0000
1110
0000
0011
0000
0011
0010
0100
1000
0011
0010
0100
1000
,
0011
0010
0100
1000
0011
0010
0100
1000
0222
0000
0000
0000
0000
0000
0000
0000
,
0000
0000
0000
0000
,
0000
0000
2333
0000
,
0000
0000
0000
0000
,
3000
0000
0000
0000
;
